video:95kB audio:120kB subtitle:0kB other streams:0kB global headers:4kB muxing overhead: 4.299700%
array(39) {
  [0]=>
  string(77) "ffmpeg version N-79779-gc5d2d3d Copyright (c) 2000-2016 the FFmpeg developers"
  [1]=>
  string(56) "  built with gcc 4.4.7 (GCC) 20120313 (Red Hat 4.4.7-16)"
  [2]=>
  string(390) "  configuration: --enable-shared --extra-libs=-ldl --enable-version3 --enable-libopencore-amrnb --enable-libopencore-amrwb --enable-libvpx --enable-libfaac --enable-libmp3lame --enable-libtheora --enable-libvorbis --enable-libx264 --enable-libxvid --disable-ffplay --enable-gpl --enable-postproc --enable-nonfree --enable-avfilter --enable-pthreads --enable-libfreetype --extra-cflags=-fPIC"
  [3]=>
  string(40) "  libavutil      55. 23.100 / 55. 23.100"
  [4]=>
  string(40) "  libavcodec     57. 38.100 / 57. 38.100"
  [5]=>
  string(40) "  libavformat    57. 36.100 / 57. 36.100"
  [6]=>
  string(40) "  libavdevice    57.  0.101 / 57.  0.101"
  [7]=>
  string(40) "  libavfilter     6. 44.100 /  6. 44.100"
  [8]=>
  string(40) "  libswscale      4.  1.100 /  4.  1.100"
  [9]=>
  string(40) "  libswresample   2.  0.101 /  2.  0.101"
  [10]=>
  string(40) "  libpostproc    54.  0.100 / 54.  0.100"
  [11]=>
  string(80) "Input #0, image2, from '/home/fbwhne6/public_html/fbwh.net/input/image%01d.png':"
  [12]=>
  string(54) "  Duration: 00:00:10.00, start: 0.000000, bitrate: N/A"
  [13]=>
  string(67) "    Stream #0:0: Video: png, gray(pc), 1080x494, 0.20 tbr, 0.20 tbn"
  [14]=>
  string(73) "[mp3 @ 0xf6f7a0] Estimating duration from bitrate, this may be inaccurate"
  [15]=>
  string(72) "Input #1, mp3, from '/home/fbwhne6/public_html/fbwh.net/input/song.mp3':"
  [16]=>
  string(59) "  Duration: 00:01:45.80, start: 0.000000, bitrate: 127 kb/s"
  [17]=>
  string(61) "    Stream #1:0: Audio: mp3, 44100 Hz, stereo, s16p, 128 kb/s"
  [18]=>
  string(39) "[libvpx @ 0xf87a40] v1.5.0-839-g3d7e267"
  [19]=>
  string(119) "[webm @ 0xf72140] Using AVStream.codec to pass codec parameters to muxers is deprecated, use AVStream.codecpar instead."
  [20]=>
  string(33) "    Last message repeated 1 times"
  [21]=>
  string(76) "Output #0, webm, to '/home/fbwhne6/public_html/fbwh.net/output/output.webm':"
  [22]=>
  string(11) "  Metadata:"
  [23]=>
  string(35) "    encoder         : Lavf57.36.100"
  [24]=>
  string(80) "    Stream #0:0: Video: vp8, yuv420p, 1080x494, q=2-31, 200 kb/s, 30 fps, 1k tbn"
  [25]=>
  string(13) "    Metadata:"
  [26]=>
  string(44) "      encoder         : Lavc57.38.100 libvpx"
  [27]=>
  string(14) "    Side data:"
  [28]=>
  string(66) "      cpb: bitrate max/min/avg: 0/0/0 buffer size: 0 vbv_delay: -1"
  [29]=>
  string(64) "    Stream #0:1: Audio: vorbis, 44100 Hz, stereo, fltp, 128 kb/s"
  [30]=>
  string(13) "    Metadata:"
  [31]=>
  string(47) "      encoder         : Lavc57.38.100 libvorbis"
  [32]=>
  string(15) "Stream mapping:"
  [33]=>
  string(52) "  Stream #0:0 -> #0:0 (png (native) -> vp8 (libvpx))"
  [34]=>
  string(58) "  Stream #1:0 -> #0:1 (mp3 (native) -> vorbis (libvorbis))"
  [35]=>
  string(31) "Press [q] to stop, [?] for help"
  [36]=>
  string(85) "Input stream #0:0 frame changed from size:1080x494 fmt:gray to size:1080x540 fmt:rgba"
  [37]=>
  string(190) "frame=    2 fps=0.0 q=0.0 size=      74kB time=00:00:05.00 bitrate= 120.8kbits/s speed=  10x    
frame=    2 fps=0.0 q=0.0 Lsize=     225kB time=00:00:09.98 bitrate= 184.4kbits/s speed=  14x"
  [38]=>
  string(99) "video:95kB audio:120kB subtitle:0kB other streams:0kB global headers:4kB muxing overhead: 4.299700%"
}
int(0)